mp4 zu ts koonvertieren für die Box (schnellvorlauf)

    This site uses cookies. By continuing to browse this site, you are agreeing to our Cookie Policy.

    • mp4 zu ts koonvertieren für die Box (schnellvorlauf)

      guten Tag
      man findes soviel konvertierung von der box an den pc
      aber vom pc an die box fast nichts

      frage ich habe ubuntu 18,04 und ffmpeg
      die meisten videos die ich brauche sind in mp4 die box spielt die auch ab aber die kann ich nicht vorspulen das springt immer zurück auf die ersten sekunden

      die mp4 sind

      Source Code

      1. Input #0, mov,mp4,m4a,3gp,3g2,mj2, from 'in.mp4':
      2. Metadata:
      3. major_brand : isom
      4. minor_version : 512
      5. compatible_brands: isomiso2avc1mp41
      6. creation_time : 1970-01-01T00:00:00.000000Z
      7. encoder : Lavf53.5.0
      8. Duration: 00:57:16.11, start: 0.000000, bitrate: 608 kb/s
      9. Stream #0:0(und): Video: h264 (Constrained Baseline) (avc1 / 0x31637661), yuv420p, 320x240 [SAR 1:1 DAR 4:3], 512 kb/s, 18 fps, 18 tbr, 18 tbn, 36 tbc (default)
      10. Metadata:
      11. creation_time : 1970-01-01T00:00:00.000000Z
      12. handler_name : VideoHandler
      13. Stream #0:1(und): Audio: aac (LC) (mp4a / 0x6134706D), 44100 Hz, stereo, fltp, 58 kb/s (default)
      14. Metadata:
      15. creation_time : 1970-01-01T00:00:00.000000Z
      16. handler_name : SoundHandler
      17. Stream #0:2(und): Data: none (rtp / 0x20707472), 26 kb/s (default)
      18. Metadata:
      19. creation_time : 2014-11-11T05:07:28.000000Z
      20. handler_name : GPAC ISO Hint Handler
      21. Stream #0:3(und): Data: none (rtp / 0x20707472), 7 kb/s (default)
      22. Metadata:
      23. creation_time : 2014-11-11T05:07:30.000000Z
      24. handler_name : GPAC ISO Hint Handler
      Display All
      Ich bitte um Hilfe diesen zu konvertieren in das TS format
      ICH weis das das video viel zu klein ist mit 320x240 das lässt sich aber leider nicht ändern
    • VLC kann, in Grenzen, auch "konvertieren".
      Gibt es für Windows & Linux.
      Ob zufriedenstellend musst Du ausprobieren, kostet ja nichts.
      Bei mir wenn ich eine Aufnahme über VLC abspiele
      & den roten Knopf für Aufnahme drücke, produziert VLC automatisch eine "ts-Datei".

      The post was edited 1 time, last by Radar ().