GUI Neustart bei einigen MKV

    Diese Seite verwendet Cookies. Durch die Nutzung unserer Seite erklären Sie sich damit einverstanden, dass wir Cookies setzen. Weitere Informationen

    • GUI Neustart bei einigen MKV

      Hallo
      Bei einigen Serien, meistens im .mkv Format die ich aus dem Netz runter geladen habe, wenn ich die aus der Vu+ Duo ansehe kommt es zum Neustart der Box.
      Immer an der gleichen Stelle im Film. Ich habe keine Ahnung warum.
      Als ich das neueste Image auf gespielt habe, habe ich alle Updates gemacht.

      Hat jemand eine Ahnung was ich machen kann.

      Gruß
    • Mkv ist ja nur ein Container. Viel wichtiger wäre der verwendete Codec, etc.
      Receiver: VU+ Uno 4k (VTI 11) // Sky+ S HD 3 2 TB
      sonstige Receiver: VU+ Uno (VTI 9.0.3) // VU+ Solo (beide in Rente)
      TV: Panasonic TX-L55DTW60 // Samsung 50MU6179
      Smartcards: Sky G02 (Entertainment + Cinema + Sport + BuLi + HD) + KDG Premium HD
    • Kannst du vermutlich abhaken, oder die Filme am PC umkodieren.

      Bis vor dem Update auf VTi 14.0 hatte ich auch reproduzierbare Crashes bei selbst kodierten mkv's, die sind seit 14.0 verschwunden. Und für die Duo gibt es ja keine VTi-Updates mehr.

      Also: entweder am PC umkodieren, oder vielleicht ein anderes Image probieren.
    • Für eine Duo² entspricht die VTi Bezeichnung 11.0.2 in deinem Profil aber nicht der aktuellen Version.

      Gruß
      Databox
    • Hallo
      Ich bin nicht so der Crack,
      Das Image aktuell ist V13.0.12

      Falls es was hilft kann ich updaten, mache ich aber nur ungern.

      Die Codecs muss ich mal auslesen und Posten.

      Umcodieren? Womit am besten. Mache ich sonst nicht.
    • Was ist so kompliziert an dem Update?
      Mach dir vorher ein komplettes Image Backup, dann kannst immer schnell auf den alten Stand zurück.
      Wär auch nicht schlecht, wenn du mal die problematischen mkv mit Mediainfo ausliest.
      Umwandeln geht mit kostenlosen Tools sehr gut, zB. Handbrake oder Avidemux.
      - - - Beitrag wurde mit Deppentalk erstellt. - - -
    • So, ich habe 14.0.1 aufgespielt aber keine Veränderung der Abbrüche fest gestellt.

      Hier eine Episode ohne Abbrüche
      Spoiler anzeigen


      General
      Unique ID : 219328487354826037720064593570295545146 (0xA5012151352DFC86A87E4D748C9D7D3A)
      Complete name : /Volumes/video/01 Serien/atb.mkv
      Format : Matroska
      Format version : Version 4
      File size : 488 MiB
      Duration : 1 h 2 min
      Overall bit rate : 1 084 kb/s
      Encoded date : UTC 2018-11-19 17:20:29
      Writing application : mkvmerge v7.9.0 ('Birds') 64bit
      Writing library : libebml v1.3.1 + libmatroska v1.4.2


      Video
      ID : 1
      Format : AVC
      Format/Info : Advanced Video Codec
      Format profile : High@L3.1
      Format settings : CABAC / 15 Ref Frames
      Format settings, CABAC : Yes
      Format settings, ReFrames : 15 frames
      Codec ID : V_MPEG4/ISO/AVC
      Duration : 1 h 2 min
      Bit rate : 839 kb/s
      Width : 720 pixels
      Height : 404 pixels
      Display aspect ratio : 16:9
      Frame rate mode : Constant
      Frame rate : 23.976 (24000/1001) FPS
      Color space : YUV
      Chroma subsampling : 4:2:0
      Bit depth : 8 bits
      Scan type : Progressive
      Bits/(Pixel*Frame) : 0.120
      Stream size : 375 MiB (77%)
      Writing library : x264 core 148 r2762 90a61ec
      Encoding settings : cabac=1 / ref=15 / deblock=1:-2:-1 / analyse=0x3:0x133 / me=umh / subme=10 / psy=1 / psy_rd=1.00:0.00 / mixed_ref=1 / me_range=24 / chroma_me=1 / trellis=2 / 8x8dct=1 / cqm=0 / deadzone=21,11 / fast_pskip=0 / chroma_qp_offset=-2 / threads=13 / lookahead_threads=2 / sliced_threads=0 / nr=0 / decimate=0 / interlaced=0 / bluray_compat=0 / constrained_intra=0 / bframes=8 / b_pyramid=2 / b_adapt=2 / b_bias=0 / direct=3 / weightb=1 / open_gop=0 / weightp=2 / keyint=250 / keyint_min=23 / scenecut=40 / intra_refresh=0 / rc_lookahead=60 / rc=crf / mbtree=1 / crf=17.5 / qcomp=0.60 / qpmin=0 / qpmax=69 / qpstep=4 / ip_ratio=1.40 / aq=2:1.00
      Default : Yes
      Forced : No
      Color range : Limited
      Color primaries : BT.709
      Transfer characteristics : BT.709
      Matrix coefficients : BT.709


      Audio #1
      ID : 2
      Format : AAC LC
      Format/Info : Advanced Audio Codec Low Complexity
      Codec ID : A_AAC-2
      Duration : 1 h 2 min
      Bit rate : 125 kb/s
      Channel(s) : 2 channels
      Channel layout : L R
      Sampling rate : 48.0 kHz
      Frame rate : 46.875 FPS (1024 SPF)
      Compression mode : Lossy
      Delay relative to video : 9 ms
      Stream size : 56.5 MiB (12%)
      Language : German
      Default : No
      Forced : No


      Audio #2
      ID : 3
      Format : AAC LC
      Format/Info : Advanced Audio Codec Low Complexity
      Codec ID : A_AAC-2
      Duration : 1 h 2 min
      Bit rate : 125 kb/s
      Channel(s) : 2 channels
      Channel layout : L R
      Sampling rate : 48.0 kHz
      Frame rate : 46.875 FPS (1024 SPF)
      Compression mode : Lossy
      Delay relative to video : 9 ms
      Stream size : 55.7 MiB (11%)
      Language : English
      Default : No
      Forced : No


      Text #1
      ID : 4
      Format : UTF-8
      Codec ID : S_TEXT/UTF8
      Codec ID/Info : UTF-8 Plain Text
      Duration : 10 min 7 s
      Bit rate : 0 b/s
      Count of elements : 3
      Stream size : 66.0 Bytes (0%)
      Title : Forced
      Language : German
      Default : Yes
      Forced : Yes


      Text #2
      ID : 5
      Format : UTF-8
      Codec ID : S_TEXT/UTF8
      Codec ID/Info : UTF-8 Plain Text
      Duration : 58 min 11 s
      Bit rate : 59 b/s
      Count of elements : 674
      Stream size : 25.4 KiB (0%)
      Language : German
      Default : No
      Forced : No


      Text #3
      ID : 6
      Format : UTF-8
      Codec ID : S_TEXT/UTF8
      Codec ID/Info : UTF-8 Plain Text
      Duration : 1 h 0 min
      Bit rate : 65 b/s
      Count of elements : 929
      Stream size : 29.2 KiB (0%)
      Language : English
      Default : No
      Forced : No
      Hier bricht er nach ein paar Sekunden ab.
      Spoiler anzeigen


      General
      Unique ID : 97932055695134277226606916340538804800 (0x49AD0721B16E64D79C07C16DBD9A0A40)
      Complete name : /Volumes/video/01 Serien/S04E09.F.mkv
      Format : Matroska
      Format version : Version 4
      File size : 577 MiB
      Duration : 59 min 10 s
      Overall bit rate : 1 364 kb/s
      Encoded date : UTC 2019-01-26 22:05:48
      Writing application : mkvmerge v20.0.0 ('I Am The Sun') 64-bit
      Writing library : libebml v1.3.5 + libmatroska v1.4.8


      Video
      ID : 1
      Format : AVC
      Format/Info : Advanced Video Codec
      Format profile : High@L3.1
      Format settings : CABAC / 15 Ref Frames
      Format settings, CABAC : Yes
      Format settings, ReFrames : 15 frames
      Codec ID : V_MPEG4/ISO/AVC
      Duration : 58 min 49 s
      Bit rate : 1 120 kb/s
      Width : 720 pixels
      Height : 404 pixels
      Display aspect ratio : 16:9
      Frame rate mode : Constant
      Frame rate : 23.976 (24000/1001) FPS
      Color space : YUV
      Chroma subsampling : 4:2:0
      Bit depth : 8 bits
      Scan type : Progressive
      Bits/(Pixel*Frame) : 0.161
      Stream size : 471 MiB (82%)
      Writing library : x264 core 155 r2901 7d0ff22
      Encoding settings : cabac=1 / ref=15 / deblock=1:0:0 / analyse=0x3:0x133 / me=umh / subme=10 / psy=1 / psy_rd=1.00:0.00 / mixed_ref=1 / me_range=24 / chroma_me=1 / trellis=2 / 8x8dct=1 / cqm=0 / deadzone=21,11 / fast_pskip=0 / chroma_qp_offset=-2 / threads=13 / lookahead_threads=2 / sliced_threads=0 / nr=0 / decimate=0 / interlaced=0 / bluray_compat=0 / constrained_intra=0 / bframes=8 / b_pyramid=2 / b_adapt=2 / b_bias=0 / direct=3 / weightb=1 / open_gop=0 / weightp=2 / keyint=250 / keyint_min=23 / scenecut=40 / intra_refresh=0 / rc_lookahead=60 / rc=crf / mbtree=1 / crf=17.0 / qcomp=0.60 / qpmin=0 / qpmax=69 / qpstep=4 / ip_ratio=1.40 / aq=2:1.00
      Default : Yes
      Forced : No
      Color range : Limited
      Color primaries : BT.709
      Transfer characteristics : BT.709
      Matrix coefficients : BT.709


      Audio #1
      ID : 2
      Format : AAC LC
      Format/Info : Advanced Audio Codec Low Complexity
      Codec ID : A_AAC-2
      Duration : 59 min 10 s
      Bit rate : 124 kb/s
      Channel(s) : 2 channels
      Channel layout : L R
      Sampling rate : 48.0 kHz
      Frame rate : 46.875 FPS (1024 SPF)
      Compression mode : Lossy
      Delay relative to video : 9 ms
      Stream size : 52.3 MiB (9%)
      Language : German
      Default : Yes
      Forced : No


      Audio #2
      ID : 3
      Format : AAC LC
      Format/Info : Advanced Audio Codec Low Complexity
      Codec ID : A_AAC-2
      Duration : 58 min 49 s
      Bit rate : 125 kb/s
      Channel(s) : 2 channels
      Channel layout : L R
      Sampling rate : 48.0 kHz
      Frame rate : 46.875 FPS (1024 SPF)
      Compression mode : Lossy
      Delay relative to video : 9 ms
      Stream size : 52.4 MiB (9%)
      Language : English
      Default : No
      Forced : No


      Text #1
      ID : 4
      Format : UTF-8
      Codec ID : S_TEXT/UTF8
      Codec ID/Info : UTF-8 Plain Text
      Duration : 57 min 6 s
      Bit rate : 53 b/s
      Count of elements : 690
      Stream size : 22.3 KiB (0%)
      Language : German
      Default : No
      Forced : No


      Text #2
      ID : 5
      Format : UTF-8
      Codec ID : S_TEXT/UTF8
      Codec ID/Info : UTF-8 Plain Text
      Duration : 57 min 1 s
      Bit rate : 48 b/s
      Count of elements : 726
      Stream size : 20.1 KiB (0%)
      Language : English
      Default : No
      Forced : No


      Text #3
      ID : 6
      Format : UTF-8
      Codec ID : S_TEXT/UTF8
      Codec ID/Info : UTF-8 Plain Text
      Duration : 57 min 1 s
      Bit rate : 53 b/s
      Count of elements : 816
      Stream size : 22.4 KiB (0%)
      Title : SDH
      Language : English
      Default : No
      Forced : No


      Menu
      00:00:00.000 : en:Recap start
      00:02:10.297 : en:Recap end


      Und bei anderen Teilen gibt es Abbrühe erst nach 15 Miunuten.

      Dieser Beitrag wurde bereits 2 mal editiert, zuletzt von hgdo ()

    • Auf den ersten Blick nichts wirklich auffälliges drin; ich würde mal zwei Sachen versuchen bei den Aufnahmen, die abbrechen:
      - mit mkvmerge (mkvtoolnix) die Text-Spuren entfernen
      - das Menu (was ist das überhaupt?) entfernen.

      Untertitel-Spuren haben schon öfter mal Stress gemacht und werden soviel ich das mitbekommen habe, auf den VU's sowieso nicht angezeigt, wenn sie so wie hier im MKV integriert sind.
    • Habe mit HandBrake die Untertitel entfernt. Jetzt läuft es.
      Aber auch mit Untertitel und einer kleinen Bildänderung läuft es.

      Was es jetzt genau ist, keine Ahnung. Ist ein bisschen läastig.

      Aber Hauptsache es geht überhaupt.